Для дружбы / Знакомство с родителями трилогия торрент

Знакомство с Факерами. Трилогия / Meet the Fockers. Trilogy (2000, 2004, 2010) BDRip

Знакомство с родителями трилогия торрент одинОписание:
Полная коллекция (трилогия) фильмов о семье Факеров.

• Знакомство с родителями / Meet the Parents (2000) BDRip
• Знакомство с Факерами / Meet the Fockers (2004) BDRip
• Знакомство с Факерами 2 / Little Fockers (2010) BDRip

(Подробное описание фильмов в теме)

Жанр : мелодрама, комедия
Страна : США
Режиссер : Джей Роуч, Пол Вайц
Актеры : Роберт Де Ниро, Бен Стиллер, Оуэн Уилсон, Тери Поло, Блайт Даннер, Дастин Хоффман, Барбра Стрейзанд.

Перевод : Дублированный
Автор рипа : ural28

Видеокодек : DivX 5
Размер кадра : 632x384, 632x376 (третья часть)
Качество видео : BDRip
Аудио :
1 : MP3, 2 ch.

192.00 kbps – русский
2 : MP3, 2 ch.

Дополнительная информация о коллекции:

Знакомство с родителями / Meet the Parents (2000) BDRip

Знакомство с родителями / Meet the Parents (2000) BDRip

Знакомство с родителями трилогия торрент дваРусское название : Знакомство с родителями
Оригинальное название : Meet the Parents
Год выпуска : 2000
Страна : США
Жанр : мелодрама, комедия
Кинокомпания : DreamWorks SKG, Nancy Tenenbaum Productions, Tribeca Productions, Universal Pictures

Описание фильма : Обладатель замечательной фамилии, санитар Грэг Трахер, отправляется за город, чтобы познакомится с родителями своей девушки Пэм. Здесь Грэг собирается торжественно просить руки возлюбленной. Но, к несчастью, Грэг — парень невезучий, и любые благие начинания в его исполнении превращаются в сущий кошмар.
Несчастный Трахер и в самом страшном сне не предполагал, какие его ждут испытания. Дело в том, что отец Пэм, Джек Бернс, — отставной сотрудник ЦРУ, устраивает приятелям дочери свою особую и жесткую проверку. Эта проверка включает в себя даже специальный тест на детекторе лжи!…

Режиссер : Джей Роуч
Актеры : Роберт Де Ниро, Бен Стиллер, Тери Поло, Блайт Даннер, Николь ДеХафф, Джон Абрахамс, Оуэн Уилсон, Джеймс Ребхорн, Томас МакКарти, Филлис Джордж, Кали Роча, Берни Шереди, Джуда Фридлендер, Питер Бартлетт, Джон Эльзен, Марк Хаммер, Эми Хон, Уильям Северс, Джон Фиоре, Мэрлин Добрин, Марси Рейд, Фрэнк Санторелли, Расселл Хорнсби, Патриция Кук, Коуди Аренс, Коул Хоукинс, Спенсер Бреслин, Ина Розенталь, Ким Райдаут, Крешимир Новакович, Джон Джозеф Галлахер, Г.А. Агилер, Линн Энн Кастл, Робби Брайан, Филлип В. Карузо, Алан Френсис, Джонатан Марк МакДоннел, Эрик-Андерс Нилссон, Базз Висконти, Тодд Уолл…

Продолжительность : 01:47:43
Перевод : Дублированный
Субтитры : отсутствуют
Автор рипа : ural28

Знакомство с родителями трилогия торрент три Знакомство с родителями трилогия торрент четыре

Дата мировой премьеры : 6 октября 2000
Дата российской премьеры : 10 января 2001 "Ист-Вест"
Дата выхода DVD релиза : 14 декабря 2010, "Юниверсал Пикчерс Рус"
Дата выхода Blu-Ray релиза : 19 января 2012, "Новый Диск"

Видеокодек : DivX 5
Битрейт видео :

2395 kbps
Размер кадра : 632x384
Качество видео : BDRip
Аудио :
1 : MP3, 2 ch.

192.00 kbps – русский
2 : MP3, 2 ch.

General
Complete name : meEt.thE.pArEnts.2000.BDRip.avi
Format : AVI
Format/Info : Audio Video Interleave
Format profile : OpenDML
File size : 2.10 GiB
Duration : 1h 47mn
Overall bit rate : 2 786 Kbps
Writing application : FairUse Wizard
Writing library : The best and REALLY easy backup tool

Video
ID : 0
Format : MPEG-4 Visual
Format settings, BVOP : 2
Format settings, QPel : No
Format settings, GMC : No warppoints
Format settings, Matrix : Default (MPEG)
Codec ID : DX50
Codec ID/Hint : DivX 5
Duration : 1h 47mn
Bit rate : 2 383 Kbps
Width : 632 pixels
Height : 384 pixels
Display aspect ratio : 1.646
Frame rate : 25.000 fps
Color space : YUV
Chroma subsampling : 4:2:0
Bit depth : 8 bits
Scan type : Progressive
Compression mode : Lossy
Bits/(Pixel*Frame) : 0.393
Stream size : 1.79 GiB (86%)
Writing library : DivX 1338m

Audio #1
ID : 1
Format : MPEG Audio
Format version : Version 1
Format profile : Layer 3
Mode : Joint stereo
Codec ID : 55
Codec ID/Hint : MP3
Duration : 1h 47mn
Bit rate mode : Constant
Bit rate : 192 Kbps
Channel(s) : 2 channels
Sampling rate : 48.0 KHz
Compression mode : Lossy
Stream size : 148 MiB (7%)
Alignment : Aligned on interleaves
Interleave, duration : 40 ms (1.00 video frame)
Interleave, preload duration : 504 ms
Writing library : LAME3.97
Encoding settings : -m j -V 4 -q 2 -lowpass 18.6 -b 192

Audio #2
ID : 2
Format : MPEG Audio
Format version : Version 1
Format profile : Layer 3
Mode : Joint stereo
Mode extension : MS Stereo
Codec ID : 55
Codec ID/Hint : MP3
Duration : 1h 47mn
Bit rate mode : Constant
Bit rate : 192 Kbps
Channel(s) : 2 channels
Sampling rate : 48.0 KHz
Compression mode : Lossy
Stream size : 148 MiB (7%)
Alignment : Aligned on interleaves
Interleave, duration : 40 ms (1.00 video frame)
Interleave, preload duration : 504 ms
Writing library : LAME3.97
Encoding settings : -m j -V 4 -q 2 -lowpass 18.6 -b 192

Скриншоты :
Знакомство с родителями трилогия торрент пять Знакомство с родителями трилогия торрент шесть Знакомство с родителями трилогия торрент семь Знакомство с родителями трилогия торрент восемь Знакомство с родителями трилогия торрент девять

Знакомство с родителями трилогия торрент десять

Исходник :

Оскар, 2001 год
Номинации (1) :
• Лучшая песня — "A Fool In Love"

Золотой глобус, 2001 год
Номинации (1) :
• Лучшая мужская роль (комедия или мюзикл) (Роберт Де Ниро)

Премия канала "MTV", 2001 год
Победитель (2) :
• Лучшая комедийная роль (Бен Стиллер)
• Лучшая реплика
Номинации (1) :
• Лучшая экранная команда (Роберт Де Ниро, Бен Стиллер)

Рецензия с сайта КиНОПОиСК от Inky :
Вот и познакомились

-А твоя фамилия правда так и произносится?
-Ну да, ТРА-[товарищ]
-О, нет!

Это просто безумно веселая комедия. Тут есть всё: и романтическая история любви, и великолепный актерский состав, и море шуток причем не ниже пояса. Говорить о сюжете тут и бессмысленно, потому что это надо смотреть. Основная сюжетная линия идёт вперемешку с целой кучей приколов и нелепиц.

Своё внимание стоит обратить на дуэт, или даже на дуЭЛЬ, Роберта ДеНиро и Бена Стиллера. Их великолепная игра заставляет нас окунуться в мир их "семейных перепалок". Тут мы одновременно сопереживаем вместе с героем Стиллера, примет ли его Папа Пэм или нет и в тоже время смеемся над его попытками угодить Отцу. И так же ДеНиро, его героя мы даже чуточку опасаемся и в тайне желаем Гею Факеру удачи, ну а что говорить про жест Роберта "Я Слежу За Тобой", то он крепко вошёл в нашу серую и скучную жизнь.

В общем если вы хотите хотя бы на пару часов скрасить ту самую унылую и скучную жизнь, то обязательно смотрите этот фильм. Вы ничего не потеряете, а как раз наоборот зарядитесь позитивом и радостью которые придаст вам это кино.

И напоследок помните, Я слежу за Тобой

Знакомство с Факерами / Meet the Fockers (2004) BDRip

Знакомство с Факерами / Meet the Fockers (2004) BDRip

Русское название : Знакомство с Факерами
Оригинальное название : Meet the Fockers
Год выпуска : 2004
Страна : США
Жанр : мелодрама, комедия
Кинокомпания : DreamWorks SKG, Everyman Pictures, Tribeca Productions, Universal Pictures

Описание фильма : Дав разрешение санитару Грэгу Факеру на свадьбу с их дочерью, бывший ЦэРэУшник Джек Бернс и его жена отправляются в Майами к родителям жениха. У них в голове много вопросов. Что это за семейка такая - Факеры? И что это вообще за родители, которые назвали сына Гей (Гейлард) М. Факер.

Режиссер : Джей Роуч
Актеры : Роберт Де Ниро, Бен Стиллер, Дастин Хоффман, Барбра Стрейзанд, Блайт Даннер, Тери Поло, Оуэн Уилсон, Спенсер Пикрен, Брэдли Пикрен, Аланна Юбак, Рэй Сантьяго, Тим Блейк Нельсон, Шелли Берман, Кали Роча, Дорри Бартон, Джек Плотник, Вейн Томас Йорк, Б.Дж. Хансен, Жан-Поль Ману, Мира Терли, Вахи Биджан, Кэтлин Гати, Анджело Тиффе, Кайл Т. МакНэми, Седрик Ярброу, Максвелл Хоффман, Бенжамин Трублад, Роберто Гарсиа, Бруно Кун, Рок Дедрик, Дэвид Саттон, Бернадетт Перез, Линда О'Нил, Тиффани Тернер, Кристин Д. Коулмэн, Джон Кэри, Виктория Чалая, Карен Гордон, Фабрицио Имас, Энджи Джари, Р. Мартин Клейн, Аллан Колмэн, Шон ЛоГрассо, Крис Мала, Рана МакАнье, Конни Ричмонд, Антонио Руфино, Дэвид Зиммерман…

Продолжительность : 01:55:15
Перевод : Дублированный
Субтитры : отсутствуют
Автор рипа : ural28

Знакомство с родителями трилогия торрент четыре

Дата мировой премьеры : 16 декабря 2004
Дата российской премьеры : 6 января 2005, "UIP"
Дата выхода DVD релиза : 2 декабря 2010, "ВС трейд"
Дата выхода Blu-Ray релиза : 22 декабря 2011, "Новый Диск"

Видеокодек : DivX 5
Битрейт видео :

2228 kbps
Размер кадра : 632x384
Качество видео : BDRip
Аудио :
1 : MP3, 2 ch.

192.00 kbps – русский
2 : MP3, 2 ch.

General
Complete name : meEt.thE.fOckErs.2004.BDRip.avi
Format : AVI
Format/Info : Audio Video Interleave
Format profile : OpenDML
File size : 2.11 GiB
Duration : 1h 55mn
Overall bit rate : 2 619 Kbps
Writing application : FairUse Wizard
Writing library : The best and REALLY easy backup tool

Video
ID : 0
Format : MPEG-4 Visual
Format settings, BVOP : 2
Format settings, QPel : No
Format settings, GMC : No warppoints
Format settings, Matrix : Default (MPEG)
Codec ID : DX50
Codec ID/Hint : DivX 5
Duration : 1h 55mn
Bit rate : 2 217 Kbps
Width : 632 pixels
Height : 384 pixels
Display aspect ratio : 1.646
Frame rate : 25.000 fps
Color space : YUV
Chroma subsampling : 4:2:0
Bit depth : 8 bits
Scan type : Progressive
Compression mode : Lossy
Bits/(Pixel*Frame) : 0.365
Stream size : 1.78 GiB (85%)
Writing library : DivX 1338m

Audio #1
ID : 1
Format : MPEG Audio
Format version : Version 1
Format profile : Layer 3
Mode : Joint stereo
Mode extension : MS Stereo
Codec ID : 55
Codec ID/Hint : MP3
Duration : 1h 55mn
Bit rate mode : Constant
Bit rate : 192 Kbps
Channel(s) : 2 channels
Sampling rate : 48.0 KHz
Compression mode : Lossy
Stream size : 158 MiB (7%)
Alignment : Aligned on interleaves
Interleave, duration : 40 ms (1.00 video frame)
Interleave, preload duration : 504 ms
Writing library : LAME3.97
Encoding settings : -m j -V 4 -q 2 -lowpass 18.6 -b 192

Audio #2
ID : 2
Format : MPEG Audio
Format version : Version 1
Format profile : Layer 3
Mode : Joint stereo
Codec ID : 55
Codec ID/Hint : MP3
Duration : 1h 55mn
Bit rate mode : Constant
Bit rate : 192 Kbps
Channel(s) : 2 channels
Sampling rate : 48.0 KHz
Compression mode : Lossy
Stream size : 158 MiB (7%)
Alignment : Aligned on interleaves
Interleave, duration : 40 ms (1.00 video frame)
Interleave, preload duration : 504 ms
Writing library : LAME3.97
Encoding settings : -m j -V 4 -q 2 -lowpass 18.6 -b 192

Скриншоты :


Исходник :

Кинонаграды "MTV-Россия", 2006 год
Номинации (1) :
• Лучший фильм на иностранном языке

Премия канала "MTV", 2005 год
Победитель (1) :
• Лучшая комедийная роль (Дастин Хоффман)

Рецензия с сайта КиНОПОиСК от Clayre :

"Я не помню в жизни ничего веселее" ©
Просмотрев замечательное "Знакомство с родителями", я не ожидала ничего стоящего от второй части, но… я ошибалась. "Знакомство с Факерами" впечатлило меня, буквально, до потери сознания и понравилось мне гораздо больше, чем 1-ая часть.

Первым же делом хочу выделить блестящих актеров: Дастина Хоффмана и Барбру Стрейзанд. Привыкла видеть их не в таких фильмах и была ошеломлена ими, в этих ролях они просто идеальны, впрочем как и все актеры в этой комедии.

Понравился сюжет до безумия, все продумано и четко сформулировано, да, таких комедий много, но эта сделана очень качественно и не остались без внимания все мелочи.

Этот фильм, наверное, единственный из всех, мною просмотренных, который не ставит человека в неприятное или в неудобное положения, шутки обыграны так, что ты над ними действительно искренне смеешься, а не испытываешь дискомфорт.

И в результате: "Знакомство с Факерами" — очень интересная, достойная, не лишенная качественного юмора комедия, которая достойна только высшей оценки и которую хочется пересматривать снова и снова.

Знакомство с Факерами 2 / Little Fockers (2010) BDRip

Знакомство с Факерами 2 / Little Fockers (2010) BDRip

Русское название : Знакомство с Факерами 2
Оригинальное название : Little Fockers
Год выпуска : 2010
Страна : США
Жанр : комедия
Кинокомпания : DW Studios, Everyman Pictures, Paramount Pictures, Relativity Media, Tribeca Productions

Описание фильма : 10 лет, двое детей и бесчисленные испытания понадобились Грегу для того, чтобы тесть частично примирился с его существованием. Но после того как Грег, оказавшись на мели, находит себе халтуру в фармацевтической компании, подозрения Джека увеличиваются в геометрической прогрессии.
Когда все семейство Грега и Пэм, включая ее бывшего возлюбленного Кевина, соберутся на день рождения близнецов, Грегу придется доказать скептично настроенному Джеку, что он настоящий хозяин в доме. Недоразумения, слежка, миссии под прикрытием — как все это поможет Грегу пройти последнее испытание и стать новым главой семьи? Или возникшее между родственниками доверие будет подорвано… к лучшему.

Режиссер : Пол Вайц
Актеры : Роберт Де Ниро, Бен Стиллер, Оуэн Уилсон, Тери Поло, Блайт Даннер, Джессика Альба, Дастин Хоффман, Барбра Стрейзанд, Лора Дерн, Харви Кейтель, Томас МакКарти, Эрика Дженсен, Кевин Харт, Дэйзи Тахэн, Колин Байоччи, Юл Васкез, Джек Аксельрод, Клинт Бауэрс, Ольга Фонда, Лакш Синх, Трула М. Маркус, Джейк Кейффер, Роб Хюбел, Джон Ди Маджио, Джордан Пил, Келли Керклэнд, Дипак Чопра, Робби Такер, Ник Кролл, Серхио Кальдерон, Дэвид Прессман, Хью Дэйн, Ричард Котовски, Эми Стиллер, Тринити Уоррен, Сэмюэл Шульц, Кейд Роджерс, Ава Роуз Уильямс, Фрэнки Торрес, Кайла Уоррен, Эрик Хайсан, Райдер Букаро, Коллдер Гриффит, Лейла, Дэвид Уильямс, Рэнди Чуэнг, Джо Тамават, Гарри Бали, Пол Херман, Лесли Гаравито…

Продолжительность : 01:37:48
Перевод : Дублированный
Субтитры : отсутствуют
Автор рипа : ural28

Знакомство с родителями трилогия торрент четыре

Дата мировой премьеры : 22 декабря 2010
Дата российской премьеры : 23 декабря 2010, "Централ Партнершип"
Дата выхода DVD релиза : 26 апреля 2011, "Юниверсал Пикчерс Рус"
Дата выхода Blu-Ray релиза : 26 апреля 2011, "Юниверсал Пикчерс Рус"

Видеокодек : DivX 5
Битрейт видео :

2571 kbps
Размер кадра : 632x376
Качество видео : BDRip
Аудио :
1 : MP3, 2 ch.

192.00 kbps – русский
2 : MP3, 2 ch.

General
Complete name : meEt.thE.fOckErs-2.2010.BDRip.avi
Format : AVI
Format/Info : Audio Video Interleave
Format profile : OpenDML
File size : 2.02 GiB
Duration : 1h 37mn
Overall bit rate : 2 962 Kbps
Writing application : FairUse Wizard
Writing library : The best and REALLY easy backup tool

Video
ID : 0
Format : MPEG-4 Visual
Format settings, BVOP : 2
Format settings, QPel : No
Format settings, GMC : No warppoints
Format settings, Matrix : Default (MPEG)
Codec ID : DX50
Codec ID/Hint : DivX 5
Duration : 1h 37mn
Bit rate : 2 560 Kbps
Width : 632 pixels
Height : 376 pixels
Display aspect ratio : 1.681
Frame rate : 23.976 fps
Color space : YUV
Chroma subsampling : 4:2:0
Bit depth : 8 bits
Scan type : Progressive
Compression mode : Lossy
Bits/(Pixel*Frame) : 0.449
Stream size : 1.75 GiB (86%)
Writing library : DivX 1338m

Audio #1
ID : 1
Format : MPEG Audio
Format version : Version 1
Format profile : Layer 3
Mode : Joint stereo
Mode extension : MS Stereo
Codec ID : 55
Codec ID/Hint : MP3
Duration : 1h 37mn
Bit rate mode : Constant
Bit rate : 192 Kbps
Channel(s) : 2 channels
Sampling rate : 48.0 KHz
Compression mode : Lossy
Stream size : 134 MiB (6%)
Alignment : Aligned on interleaves
Interleave, duration : 42 ms (1.00 video frame)
Interleave, preload duration : 504 ms
Writing library : LAME3.97
Encoding settings : -m j -V 4 -q 2 -lowpass 18.6 -b 192

Audio #2
ID : 2
Format : MPEG Audio
Format version : Version 1
Format profile : Layer 3
Mode : Joint stereo
Mode extension : MS Stereo
Codec ID : 55
Codec ID/Hint : MP3
Duration : 1h 37mn
Bit rate mode : Constant
Bit rate : 192 Kbps
Channel(s) : 2 channels
Sampling rate : 48.0 KHz
Compression mode : Lossy
Stream size : 134 MiB (6%)
Alignment : Aligned on interleaves
Interleave, duration : 42 ms (1.00 video frame)
Interleave, preload duration : 504 ms
Writing library : LAME3.97
Encoding settings : -m j -V 4 -q 2 -lowpass 18.6 -b 192

Скриншоты :


Исходник :

Золотая малина, 2011 год
Победитель (1) :
• Худшая женская роль второго плана (Джессика Альба)
Номинации (2) :
• Худшая женская роль второго плана (Барбра Стрейзанд)
• Худший сценарий

Жорж, 2011 год
Номинации (1) :
• Лучшая зарубежная комедия

Рецензия с сайта КиНОПОиСК от Star849 :

Третья - не лишняя
Итак, после просмотра данного фильма я остался вполне доволен. "Знакомство с Факерами 2" является третьей серией из историй о семействе Факеров. Первые две части оказались очень успешными, как и в прокате, так в отзывах зрителей. И вот, несколько лет спустя, на свет появляется третья и, наверное, последняя часть фильма. Сделать достойную трилогию очень сложно. Чаще всего бывает, что уже после первой удачной части, сиквел вызывает отвращение. В нашем случае такого не произошло, и вторая часть собрала еще больше, чем первая. А что касается третьей, то тут судить сложно. С одной стороны, фильм утратил свою былую свежесть и превратился в сплошную банальность. Но с другой стороны, в плане сюжета и юмора, фильм заметно не испортился.

Сюжет прост. Спокойная, тихая пара живет где-то в Чикаго. Теперь, у них появились дети, которых очень любят. Все, кажется, хорошо и спокойно. Так бы оно и было, если б не родители с обеих сторон. Каждый из этих родителей по-своему "сумасшедший". И именно из-за них, у этой парочки возникают разные проблемы.

Юмор немного изменился. В этой части, сценаристы сделали ставку на опошленные шутки. Но кому-нибудь это наоборот понравится. Конечно, далеко не весь юмор таков, и шутки в "старом стиле" тоже прозвучат и не раз.

Единственное, что совсем не изменилось это актеры. Все, прекрасно запомнившиеся актеры, сыгравшие в прошлой части выступили и здесь. Прибавился только один взрослый персонаж в лице Джессики Альбы. Она очень хорошо влилась в фильм, т. к. тема измены еще не была затронута ранее.

Итог: Конечно, уже не то, что раньше. Но этот фильм смотреть тоже очень интересно, и, порой, очень смешно. Ведь одна из главных задач комедий — это рассмешить зрителя, с чем "Знакомство с Факерами 2", на мой взгляд, справилось.

Какие вопросы задать при знакомстве мужчине
Знакомства в г шексна
Знакомства для интима в сибае
Знакомства воронеж моя страница
Знакомство в анжеро судженске